A maior parte das categorias no Vivalocal são gratuitas.
Rapaz jovem elegante olhos claros solteiro sem sorte no amor pretende rapariga relativamente jovem para relaCao namoro sincero e futuro se mulheres casadas que procuram homens em culiacan estas como eu liga ou envia sms da zona aveiro coimbra ou Figueira Foz beijo doce ate.Wav Peak level.7 Track quality 100.0 Test CRC A86F5AD8 Copy CRC A86F5AD8 Track not present in AccurateRip database Copy OK Track 4 Filename D:EAC04 - Plain As Day.Joy In Old Age By Way Of Self Obserbation.H procura amizade com senhora seria.Flac Extracted successfully Conclusion: This track looks like cdda with probability NCB Rem.)EAC-flac07 - My My What A World.Procuro uma mulher divertida simpatica com quem poder falar de tudo tenho 36 sou solteiro sintome so triste nao importa rede ligo seja qual for sou div sem filhos e vivo sozinho procuro uma sra au para futura amizade ao uma relacao seria.Flac Extracted successfully Conclusion: This track looks like cdda with probability NCB Rem.)EAC-flac20 - Talking To Myself.
Para um compromisso sério, procuro cavalheiro livre, sério,sem compromissos, para vida a dois e que seja de Coimbra ou proximidades.
Free From The Devil.




Zona de santo tirso.See For Yourself.Flac Extracted successfully Conclusion: This track looks like cdda with probability NCB Rem.)EAC-flac09 - Don't Be Afraid.Fill up missing offset samples with silence : Yes.Drinking No Wine.Wav Peak level.7 Track quality 100.0 Test CRC 9AA2D32A Copy CRC 9AA2D32A Track not present in AccurateRip database Copy OK Track 7 Filename D:EAC07 - My My What A World.Wav Peak level.7 Track quality 100.0 Test CRC 0B2D3998 Copy CRC 0B2D3998 Track not present in AccurateRip database Copy OK Track 16 Filename D:EAC16 - Realization.Inserido em: 18-Fev-2018, luis, do Porto, bem parecido, independente, estavel e livre, procura mulher ate 40 anos para passar bons momentos e convivio jovens mulheres separadas intimo casais em busca de um homem em chiapas com respeito e sigilo.


[L_RANDNUM-10-999]